Ваша корзина пуста

Finding Dory 2016 download movie torrent

Good torrent

Download

Disney Pixar Finding Dory invites everyone back to big screen favorite forgetful blue tang Dory, who is living happily in rock and Marlin and Nemo. Dory suddenly remembers that her family out there who might be looking for him, the trio takes off on a life-changing adventure at sea prestigious California Institute Marine Life, the rehabilitation center and aquarium. In an attempt to find his father and his mother, Dory enlists the help of three of the most intriguing people Lis: Hank, grumpy octopus which often gives employees incorporated; Bailey, beluga whale sonar believe her ability to parent is on the fritz; and fate, myopic whale shark. Deftly navigating the complex inner workings of MLI, Dory and his friends discover the magic within their flaws, friendship and family.

Finding Dory 2016 x264 AC3 HDTS Vain

P R E E N T S. .

:

Technical. I N F O.

basic information

Format: Matroska

Format version: Version 4 / Version 2

File: MiB

Duration: 1 hour 26mn

Overall bit rate mode: Variable

Overall bit rate: 2 255 Kbps

Encoded date: 7/10/2016 21:25:07 UTC

Writing application: mkvmerge ( ‘Beyond the Horizon’) 64bit

Writing library: libebml + libmatroska

video

ID: 1

Format: AVC

Format / Info: Advanced Video Codec

Format profile: / * * /

landscape format, CABAC: Yes

landscape format, reframes: 3 frames

Codec ID: V_MPEG4 / ISO / AVC

Duration: 1 hour 26mn

bit rate mode: Variable

bit rate: 1997 Kbps

The maximum bit rate: Mbps

Width: 720 pixels

Length: 384 pixels

Display aspect ratio :: 1

Frame rate mode: constant

frame rate: (30000/1001) FPS

Color Space: YUV

Chroma subsampling 4: 2: 0

Bit Depth: 8 bits

Scan type: Progressive

Bits / (Pixel * Frame):

Stream size: MiB (89%)

Writing library: x264 core 148 r2692 64f4e24

English

Default: Yes

Forced: No

Various colors: Full

Color primaries:

Transfer characteristics:

Matrix coefficients:

radio

ID: 2

Format: AC-3

Format / Info: Audio Coding 3

Natural extension: CM (complete main)

landscape format, endianness: Large

Codec ID: A_AC3

Duration: 1 hour 26mn

bit rate mode: constant

bit rate: 256 Kbps

Channel (s): 2 channels

Channel positions: Front: LR

sample rate: KHz

Frame rate FPS (SPF 1536)

Compression mode: Lossy

Delay relative to video: 16ms

Stream size: 159 MiB (11%)

English

Default: Yes

Forced: No

E C O N D E R S T O N E S.

:

…………:

: Yippers

He added: Love love color, crisp whites and then spray General ol ‘poo-gloss and sexy solid

S C R E E N S H O T S..

  1. Finding Dory 2016 DVD full movie download torrent
  2. Finding Dory 2016 French BRRip XviD Free Movie Download Torrent
  3. Finding Dory 2016 HD 1080p Full Movie Torrent

Rating 27 1 document.currentScript.parentNode.insertBefore(s, document.currentScript);

Комментарии читателей статьи "Finding Dory 2016 download movie torrent"

Добавить комментарий

Ваш e-mail не будет опубликован. Обязательные поля помечены *

Мы в соц сетях